中國高清論壇

 找回密碼
 立即注冊
亞博
搜索
查看: 346|回復: 61
打印 上一主題 下一主題

[恐怖片] 千尸屋3.2019.UNRATED.2160p.BluRay.x264.8bit.SDR.DTS-HD.MA.TrueHD.7.1-SWTYBLZ

  [復制鏈接]

高清發布組長

高清幣
2171
金錢
4464
鮮花
0
在線時間
351 小時
最后登錄
2019-10-13
跳轉到指定樓層
樓主
發表于 4 天前 | 只看該作者 回帖獎勵 |倒序瀏覽 |閱讀模式


[size=13.3333px]◎譯  名 千尸屋3 / Three From Hell / 恐怖三人組
[size=13.3333px]◎片  名 3 from Hell
[size=13.3333px]◎年  代 2019
[size=13.3333px]◎產  地 美國
[size=13.3333px]◎類  別 恐怖
[size=13.3333px]◎語  言 英語
[size=13.3333px]◎上映日期 2019-09-18(美國)
[size=13.3333px]◎IMDb評分 6.6/10 from 1120 users
[size=13.3333px]◎IMDb鏈接 http://www.imdb.com/title/tt8134742
[size=13.3333px]◎豆瓣評分 0/10 from 0 users
[size=13.3333px]◎豆瓣鏈接 https://movie.douban.com/subject/30254678/
[size=13.3333px]◎片  長 111分鐘
[size=13.3333px]◎導  演 羅布·贊比 Rob Zombie
[size=13.3333px]◎編  劇 羅布·贊比 Rob Zombie
[size=13.3333px]◎主  演 雪莉·穆恩·贊比 Sheri Moon Zombie
[size=13.3333px]      希德·黑格 Sid Haig
[size=13.3333px]      比爾·莫斯利 Bill Moseley
[size=13.3333px]      埃米里奧·瑞弗拉 Emilio Rivera
[size=13.3333px]      丹尼·特雷霍 Danny Trejo
[size=13.3333px]      克林特·霍華德 Clint Howard
[size=13.3333px]      理查德·布雷克 Richard Brake
[size=13.3333px]      丹尼爾·洛巴克 Daniel Roebuck
[size=13.3333px]      杰弗里·丹尼爾·菲利普斯 Jeffrey Daniel Phillips
[size=13.3333px]      戴維·尤里 David Ury
[size=13.3333px]      迪·沃倫斯 Dee Wallace
[size=13.3333px]      多特-瑪麗·瓊斯 Dot-Marie Jones
[size=13.3333px]      西恩·瓦蘭 Sean Whalen
[size=13.3333px]      理查德·里爾 Richard Riehle
[size=13.3333px]      馬修·維利希 Matthew Willig
[size=13.3333px]      西爾維婭·杰弗里斯 Sylvia Jefferies
[size=13.3333px]      理查德·埃德森 Richard Edson
[size=13.3333px]      盧辛達·珍妮 Lucinda Jenney
[size=13.3333px]      史蒂芬·邁克爾·克扎達 Steven Michael Quezada
[size=13.3333px]      克里斯托弗·B·鄧肯 Christopher B. Duncan
[size=13.3333px]      小比爾·奧伯斯特 Bill Oberst Jr.
[size=13.3333px]      比利·布萊爾 Billy Blair
[size=13.3333px]      杜恩·惠特克 Duane Whitaker
[size=13.3333px]      馬里亞諾·門多薩 Mariano Mendoza
[size=13.3333px]      簡·霍格 Jan Hoag
[size=13.3333px]      尼克·科尼特 Nic Cornett
[size=13.3333px]      Tom Papa
[size=13.3333px]      Pancho Moler
[size=13.3333px]      Austin Stoker
[size=13.3333px]      Chastity Bono
[size=13.3333px]      Stacie Greenwell
[size=13.3333px]      Rian Bishop


[size=13.3333px]◎標  簽 恐怖 | 美國 | 羅布·贊比 | RobZombie | 美國電影 | 電影 | 犯罪 | 美國

[size=13.3333px]◎簡  介

[size=13.3333px]  Sequel to The Devil's Rejects.
Video
ID : 1
Format : AVC
Format/Info : Advanced Video Codec
Format profile : [email protected]
Format settings : CABAC / 5 Ref Frames
Format settings, CABAC : Yes
Format settings, Reference frames : 5 frames
Codec ID : V_MPEG4/ISO/AVC
Duration : 1 h 55 min
Bit rate : 64.2 Mb/s
Width : 3 840 pixels
Height : 2 076 pixels
Display aspect ratio : 1.85:1
Frame rate mode : Constant
Frame rate : 23.976 (24000/1001) FPS
Color space : YUV
Chroma subsampling : 4:2:0
Bit depth : 8 bits
Scan type : Progressive
Bits/(Pixel*Frame) : 0.336
Stream size : 51.9 GiB (90%)
Title : 3.from.Hell.2019.UNRATED.2160p.BluRay.x264.8bit.SDR.DTS-HD.MA.TrueHD.7.1-SWTYBLZ
Writing library : x264 core 157 r2935 545de2f
Encoding settings : cabac=1 / ref=5 / deblock=1:-1:-1 / analyse=0x3:0x113 / me=umh / subme=10 / psy=1 / psy_rd=1.00:0.15 / mixed_ref=1 / me_range=48 / chroma_me=1 / trellis=2 / 8x8dct=1 / cqm=0 / deadzone=21,11 / fast_pskip=1 / chroma_qp_offset=-3 / threads=48 / lookahead_threads=4 / sliced_threads=0 / nr=0 / decimate=0 / interlaced=0 / bluray_compat=0 / constrained_intra=0 / bframes=3 / b_pyramid=2 / b_adapt=2 / b_bias=0 / direct=3 / weightb=1 / open_gop=0 / weightp=2 / keyint=250 / keyint_min=23 / scenecut=40 / intra_refresh=0 / rc_lookahead=50 / rc=crf / mbtree=1 / crf=18.0 / qcomp=0.60 / qpmin=0 / qpmax=69 / qpstep=4 / ip_ratio=1.40 / aq=1:1.00
Default : Yes
Forced : No

Audio #1
ID : 2
Format : MLP FBA
Format/Info : Meridian Lossless Packing FBA
Commercial name : Dolby TrueHD
Codec ID : A_TRUEHD
Duration : 1 h 55 min
Bit rate mode : Variable
Bit rate : 2 248 kb/s
Maximum bit rate : 4 176 kb/s
Channel(s) : 8 channels
Channel layout : L R C LFE Ls Rs Lb Rb
Sampling rate : 48.0 kHz
Frame rate : 1 200.000 FPS (40 SPF)
Compression mode : Lossless
Stream size : 1.82 GiB (3%)
Title : 3.from.Hell.2019.UNRATED.2160p.BluRay.x264.8bit.SDR.DTS-HD.MA.TrueHD.7.1-SWTYBLZ
Language : English
Default : Yes
Forced : No

Audio #2
ID : 3
Format : DTS XLL
Format/Info : Digital Theater Systems
Commercial name : DTS-HD Master Audio
Codec ID : A_DTS
Duration : 1 h 55 min
Bit rate mode : Variable
Bit rate : 4 258 kb/s
Channel(s) : 8 channels
Channel layout : C L R LFE Lb Rb Lss Rss
Sampling rate : 48.0 kHz
Frame rate : 93.750 FPS (512 SPF)
Bit depth : 24 bits
Compression mode : Lossless
Stream size : 3.44 GiB (6%)
Title : 3.from.Hell.2019.UNRATED.2160p.BluRay.x264.8bit.SDR.DTS-HD.MA.TrueHD.7.1-SWTYBLZ
Language : English
Default : No
Forced : No

Audio #3
ID : 4
Format : AC-3
Format/Info : Audio Coding 3
Commercial name : Dolby Digital
Codec ID : A_AC3
Duration : 1 h 55 min
Bit rate mode : Constant
Bit rate : 640 kb/s
Channel(s) : 6 channels
Channel layout : L R C LFE Ls Rs
Sampling rate : 48.0 kHz
Frame rate : 31.250 FPS (1536 SPF)
Bit depth : 16 bits
Compression mode : Lossy
Stream size : 530 MiB (1%)
Title : 3.from.Hell.2019.UNRATED.2160p.BluRay.x264.8bit.SDR.DTS-HD.MA.TrueHD.7.1-SWTYBLZ
Language : English
Service kind : Complete Main
Default : No
Forced : No

Text #1
ID : 5
Format : UTF-8
Codec ID : S_TEXT/UTF8
Codec ID/Info : UTF-8 Plain Text
Duration : 1 h 46 min
Bit rate : 51 b/s
Count of elements : 1361
Stream size : 40.4 KiB (0%)
Title : English-SRT
Language : English
Default : Yes
Forced : No

Text #2
ID : 6
Format : PGS
Muxing mode : zlib
Codec ID : S_HDMV/PGS
Codec ID/Info : Picture based subtitle format used on BDs/HD-DVDs
Duration : 1 h 52 min
Bit rate : 40.0 kb/s
Count of elements : 3224
Stream size : 32.2 MiB (0%)
Title : English-PGS
Language : English
Default : No
Forced : No

Text #3
ID : 7
Format : PGS
Muxing mode : zlib
Codec ID : S_HDMV/PGS
Codec ID/Info : Picture based subtitle format used on BDs/HD-DVDs
Duration : 1 h 46 min
Bit rate : 35.3 kb/s
Count of elements : 2784
Stream size : 26.9 MiB (0%)
Title : Spanish-PGS
Language : Spanish
Default : No
Forced : No

Menu
00:00:00.000 : en:Chapter 01
00:06:18.920 : en:Chapter 02
00:13:16.838 : en:Chapter 03
00:21:29.538 : en:Chapter 04
00:28:25.287 : en:Chapter 05
00:33:30.050 : en:Chapter 06
00:42:12.739 : en:Chapter 07
00:48:23.150 : en:Chapter 08
00:55:16.188 : en:Chapter 09
01:05:21.167 : en:Chapter 10
01:10:13.835 : en:Chapter 11
01:21:00.939 : en:Chapter 12
01:25:16.111 : en:Chapter 13
01:31:16.262 : en:Chapter 14
01:39:35.344 : en:Chapter 15
01:46:39.476 : en:Chapter 16

[size=13.3333px][size=13.3333px][size=13.3333px][size=13.3333px][size=13.3333px][size=13.3333px][size=13.3333px]


回復下載:





游客,如果您要查看本帖隱藏內容請回復,您還可以免扣高清幣免回復下載:http://www.ggchty.live/plugin.php?id=wyfaka_url:url


回復

使用道具 舉報

永恒神話

高清幣
13526
金錢
38309
鮮花
10
在線時間
2540 小時
最后登錄
2019-10-13
沙發
發表于 4 天前 | 只看該作者
樓主發貼辛苦了,謝謝樓主分享!我覺得中國高清論壇是注冊對了!
回復 支持 反對

使用道具 舉報

人氣偶像

高清幣
336
金錢
633
鮮花
0
在線時間
77 小時
最后登錄
2019-10-13
板凳
發表于 4 天前 | 只看該作者
樓主發貼辛苦了,謝謝樓主分享!我覺得中國高清論壇是注冊對了!
回復 支持 反對

使用道具 舉報

超級明星

高清幣
2015
金錢
4327
鮮花
0
在線時間
361 小時
最后登錄
2019-10-13
地板
發表于 4 天前 | 只看該作者

感謝樓主的無私分享!要想中國高清論壇好 就靠你我他
回復 支持 反對

使用道具 舉報

知名藝人

高清幣
69
金錢
604
鮮花
0
在線時間
148 小時
最后登錄
2019-10-12
5#
發表于 4 天前 | 只看該作者
謝謝樓主分享!
回復 支持 反對

使用道具 舉報

VIP貴賓

高清幣
16848
金錢
67380
鮮花
0
在線時間
2778 小時
最后登錄
2019-10-13
6#
發表于 4 天前 | 只看該作者
樓主發貼辛苦了,謝謝樓主分享!我覺得中國高清論壇是注冊對了!
回復 支持 反對

使用道具 舉報

金雞獎主角

高清幣
171
金錢
4360
鮮花
0
在線時間
1079 小時
最后登錄
2019-10-13
7#
發表于 4 天前 | 只看該作者
樓主發貼辛苦了,謝謝樓主分享!我覺得中國高清論壇是注冊對了!
回復 支持 反對

使用道具 舉報

人氣偶像

高清幣
6
金錢
1553
鮮花
0
在線時間
123 小時
最后登錄
2019-10-9
8#
發表于 4 天前 | 只看該作者

樓主太厲害了!樓主,電影應該很好看我覺得中國高清論壇真是個好地方!
回復 支持 反對

使用道具 舉報

superstar

高清幣
339
金錢
14720
鮮花
0
在線時間
1647 小時
最后登錄
2019-10-13
9#
發表于 4 天前 | 只看該作者

樓主太厲害了!樓主,電影應該很好看我覺得中國高清論壇真是個好地方!
回復 支持 反對

使用道具 舉報

天王巨星

高清幣
989
金錢
1330
鮮花
0
在線時間
94 小時
最后登錄
2019-10-13
10#
發表于 4 天前 | 只看該作者

既然你誠信誠意的推薦了,那我就勉為其難的看看吧!中國高清論壇不走平凡路。
回復 支持 反對

使用道具 舉報

懶得打字嘛,點擊右側快捷回復 【右側內容,后臺自定義】
您需要登錄后才可以回帖 登錄 | 立即注冊

本版積分規則

QQ|手機版|小黑屋|中國高清論壇 ( 黔ICP備16007815號-1 )

GMT+8, 2019-10-13 22:41 , Processed in 0.048930 second(s), 23 queries .

Powered by Discuz! X3.4

© 2001-2017 Comsenz Inc.

快速回復 返回頂部 返回列表
排列3总跨度振幅走势图