中國高清論壇

 找回密碼
 立即注冊
亞博
搜索
查看: 580|回復: 121
打印 上一主題 下一主題

[REMUX] 模仿女孩.Imitation.Girl.2017.1080p.BluRay.REMUX.AVC.DTS-HD.MA.2.0-FGT

  [復制鏈接]

高清發布組長

高清幣
2171
金錢
4464
鮮花
0
在線時間
351 小時
最后登錄
2019-10-13
跳轉到指定樓層
樓主
發表于 4 天前 | 只看該作者 回帖獎勵 |倒序瀏覽 |閱讀模式


[size=13.3333px]◎譯  名 模仿女孩
[size=13.3333px]◎片  名 Imitation Girl
[size=13.3333px]◎年  代 2017
[size=13.3333px]◎產  地 美國
[size=13.3333px]◎類  別 劇情 / 科幻
[size=13.3333px]◎語  言 英語
[size=13.3333px]◎上映日期 2017-03-04
[size=13.3333px]◎IMDb評分 4.9/10 from 363 users
[size=13.3333px]◎IMDb鏈接 http://www.imdb.com/title/tt5612564
[size=13.3333px]◎豆瓣評分 0/10 from 0 users
[size=13.3333px]◎豆瓣鏈接 https://movie.douban.com/subject/26985563/
[size=13.3333px]◎片  長 84分鐘
[size=13.3333px]◎導  演 Natasha Kermani
[size=13.3333px]◎編  劇 Natasha Kermani
[size=13.3333px]◎主  演 勞倫·阿什利·卡特 Lauren Ashley Carter
[size=13.3333px]      劉易斯·布萊克 Lewis Black
[size=13.3333px]      亞當·大衛·湯普森 Adam David Thompson
[size=13.3333px]      Neimah Djourabchi
[size=13.3333px]      凱瑟琳·瑪麗·斯圖爾特 Catherine Mary Stewart
[size=13.3333px]      Stefanie Woodburn
[size=13.3333px]      Sanam Erfani
[size=13.3333px]      凱文·奧羅克 Kevin O'Rourke
[size=13.3333px]      William Wakeland
[size=13.3333px]      Taylor Warden
[size=13.3333px]      Kevin Metz
[size=13.3333px]      Brian Morvant
[size=13.3333px]      凱利·奧弗貝 Kellie Overbey
[size=13.3333px]      Gerrard Lobo
[size=13.3333px]      Kalyn West
[size=13.3333px]      Christopher Watson
[size=13.3333px]      Rachel Darden Bennett
[size=13.3333px]      Martin Pfefferkorn
[size=13.3333px]      Tempest
[size=13.3333px]      瑪莎·斯蒂芬妮·布萊克 Marsha Stephanie Blake


[size=13.3333px]◎標  簽 科幻 | 美國 | 劇情 | 人生 | 美國電影 | 奇幻 | 2017

[size=13.3333px]◎簡  介

[size=13.3333px]  A mysterious young woman materializes in the middle of the southwestern desert, where each step teaches her about her new world and her new body. As she assumes her new life, she discovers she has a twin with whom she shares more than just an outward appearance.
Video
ID : 1
Format : AVC
Format/Info : Advanced Video Codec
Format profile : [email protected]
Format settings : CABAC / 2 Ref Frames
Format settings, CABAC : Yes
Format settings, Reference frames : 2 frames
Codec ID : V_MPEG4/ISO/AVC
Duration : 1 h 23 min
Bit rate mode : Variable
Bit rate : 20.4 Mb/s
Maximum bit rate : 30.2 Mb/s
Width : 1 920 pixels
Height : 1 080 pixels
Display aspect ratio : 16:9
Frame rate mode : Constant
Frame rate : 23.976 (24000/1001) FPS
Color space : YUV
Chroma subsampling : 4:2:0
Bit depth : 8 bits
Scan type : Progressive
Bits/(Pixel*Frame) : 0.410
Stream size : 11.9 GiB (96%)
Title : Imitation.Girl.2017.1080p.BluRay.REMUX.AVC.DTS-HD.MA.2.0-FGT
Language : English
Default : No
Forced : No

Audio
ID : 2
Format : DTS XLL
Format/Info : Digital Theater Systems
Commercial name : DTS-HD Master Audio
Codec ID : A_DTS
Duration : 1 h 23 min
Bit rate mode : Variable
Bit rate : 924 kb/s
Channel(s) : 2 channels
Sampling rate : 48.0 kHz
Frame rate : 93.750 FPS (512 SPF)
Bit depth : 16 bits
Compression mode : Lossless
Stream size : 553 MiB (4%)
Title : Imitation.Girl.2017.1080p.BluRay.REMUX.AVC.DTS-HD.MA.2.0-FGT
Language : English
Default : Yes
Forced : No

Menu
00:00:00.000 : en:Chapter 01
00:06:51.077 : en:Chapter 02
00:18:50.337 : en:Chapter 03
00:25:57.138 : en:Chapter 04
00:33:52.655 : en:Chapter 05
00:41:42.958 : en:Chapter 06
00:47:23.382 : en:Chapter 07
00:53:54.856 : en:Chapter 08
00:58:20.497 : en:Chapter 09
01:03:28.346 : en:Chapter 10
01:12:15.247 : en:Chapter 11
01:20:31.576 : en:Chapter 12

[size=13.3333px][size=13.3333px][size=13.3333px]


回復下載:





游客,如果您要查看本帖隱藏內容請回復,您還可以免扣高清幣免回復下載:http://www.ggchty.live/plugin.php?id=wyfaka_url:url


回復

使用道具 舉報

永恒神話

高清幣
5615
金錢
16654
鮮花
0
在線時間
3125 小時
最后登錄
2019-10-13
沙發
發表于 4 天前 | 只看該作者
感謝樓主分享高清資源!
回復 支持 反對

使用道具 舉報

超級明星

高清幣
1928
金錢
6335
鮮花
0
在線時間
1252 小時
最后登錄
2019-10-13
板凳
發表于 4 天前 | 只看該作者

這個帖子不回對不起自己!我想我是一天也不能離開中國高清論壇
回復 支持 反對

使用道具 舉報

永恒神話

高清幣
13526
金錢
38309
鮮花
10
在線時間
2540 小時
最后登錄
2019-10-13
地板
發表于 4 天前 | 只看該作者

這東西我收了!謝謝樓主!中國高清論壇真好!
回復 支持 反對

使用道具 舉報

金雞獎主角

高清幣
5
金錢
3977
鮮花
0
在線時間
905 小時
最后登錄
2019-10-13
5#
發表于 4 天前 | 只看該作者
樓主發貼辛苦了,謝謝樓主分享!我覺得中國高清論壇是注冊對了!
回復 支持 反對

使用道具 舉報

好萊塢明星

高清幣
1484
金錢
6373
鮮花
0
在線時間
1287 小時
最后登錄
2019-10-13
6#
發表于 4 天前 | 只看該作者
thank you very much
回復 支持 反對

使用道具 舉報

天王巨星

高清幣
61
金錢
2719
鮮花
0
在線時間
585 小時
最后登錄
2019-10-12
7#
發表于 4 天前 | 只看該作者
中國高清論壇
回復 支持 反對

使用道具 舉報

superstar

高清幣
235
金錢
11249
鮮花
0
在線時間
2399 小時
最后登錄
2019-10-12
8#
發表于 4 天前 | 只看該作者

這東西我收了!謝謝樓主!中國高清論壇真好!
回復 支持 反對

使用道具 舉報

金雞獎主角

高清幣
412
金錢
5351
鮮花
0
在線時間
2159 小時
最后登錄
2019-10-13
9#
發表于 4 天前 | 只看該作者
樓主發貼辛苦了,謝謝樓主分享!
回復 支持 反對

使用道具 舉報

超級明星

高清幣
2015
金錢
4327
鮮花
0
在線時間
361 小時
最后登錄
2019-10-13
10#
發表于 4 天前 | 只看該作者

感謝樓主的無私分享!要想中國高清論壇好 就靠你我他
回復 支持 反對

使用道具 舉報

懶得打字嘛,點擊右側快捷回復 【右側內容,后臺自定義】
您需要登錄后才可以回帖 登錄 | 立即注冊

本版積分規則

QQ|手機版|小黑屋|中國高清論壇 ( 黔ICP備16007815號-1 )

GMT+8, 2019-10-13 22:44 , Processed in 0.044209 second(s), 23 queries .

Powered by Discuz! X3.4

© 2001-2017 Comsenz Inc.

快速回復 返回頂部 返回列表
排列3总跨度振幅走势图