中國高清論壇

 找回密碼
 立即注冊
亞博
搜索
查看: 301|回復: 74
打印 上一主題 下一主題

[REMUX] 暗夜哭聲.A.Cry.in.the.Dark.1988.1080p.BluRay.REMUX.AVC.DTS-HD.MA.2.0-FGT

  [復制鏈接]

高清發布組長

高清幣
2171
金錢
4464
鮮花
0
在線時間
351 小時
最后登錄
2019-10-13
跳轉到指定樓層
樓主
發表于 4 天前 | 只看該作者 回帖獎勵 |倒序瀏覽 |閱讀模式


[size=13.3333px]◎譯  名 暗夜哭聲 / A Cry in the Dark / 黑暗中的吶喊 / 黑暗中的呼號 / 黑暗中的呼喊
[size=13.3333px]◎片  名 Evil Angels
[size=13.3333px]◎年  代 1988
[size=13.3333px]◎產  地 澳大利亞 / 美國
[size=13.3333px]◎類  別 劇情
[size=13.3333px]◎語  言 英語
[size=13.3333px]◎上映日期 1988-11-03(澳大利亞)
[size=13.3333px]◎IMDb評分 6.9/10 from 8499 users
[size=13.3333px]◎IMDb鏈接 http://www.imdb.com/title/tt0094924
[size=13.3333px]◎豆瓣評分 7.6/10 from 487 users
[size=13.3333px]◎豆瓣鏈接 https://movie.douban.com/subject/1299082/
[size=13.3333px]◎片  長 120分鐘
[size=13.3333px]◎導  演 弗雷德·謝皮西 Fred Schepisi
[size=13.3333px]◎編  劇 弗雷德·謝皮西 Fred Schepisi / Robert Caswell
[size=13.3333px]◎主  演 梅麗爾·斯特里普 Meryl Streep
[size=13.3333px]      山姆·尼爾 Sam Neill
[size=13.3333px]      Dale Reeves
[size=13.3333px]      David Hoflin
[size=13.3333px]      Jason Reason
[size=13.3333px]      Michael Wetter


[size=13.3333px]◎標  簽 澳大利亞 | 梅麗爾·斯特里普 | 法律 | 劇情 | MerylStreep | 1988 | 美國 | 澳大利亞電影

[size=13.3333px]◎簡  介

[size=13.3333px]  故事發生在1980年的澳大利亞,邁克爾(山姆·尼爾 Sam Neill 飾)和妻子林迪(梅麗爾·斯特里普 Meryl Streep 飾)帶著他們的三個孩子正在進行一場家庭旅行。某天夜里,夫妻兩人將最小的孩子阿扎利亞留在襁褓之中外出訪友,哪知道一場意外的發生奪走了阿扎利亞幼小的生命。
[size=13.3333px]  讓邁克爾和林迪萬萬沒有想到的是,他們除了要承受失去孩子的巨大悲痛之外,竟然還遭到了指控,指控夫妻兩人正是幕后的兇手。隨后,法庭開始了對于該案件的漫長的審判,盡管缺乏關鍵的證據,但林迪還是被判處了終身監禁。在獄中,林迪生下了第四個孩子,孩子被交由邁克爾撫養。漫長的牢獄歲月里,林迪不斷的上訴,并最終為自己掙得了清白和自由。

[size=13.3333px]◎獲獎情況

[size=13.3333px]  第61屆奧斯卡金像獎(1989)
[size=13.3333px]  最佳女主角(提名) 梅麗爾·斯特里普

[size=13.3333px]  第42屆戛納電影節(1989)
[size=13.3333px]  主競賽單元 金棕櫚獎(提名) 弗雷德·謝皮西
[size=13.3333px]  主競賽單元 最佳女演員 梅麗爾·斯特里普
Video
ID : 1
Format : AVC
Format/Info : Advanced Video Codec
Format profile : [email protected]
Format settings : CABAC / 3 Ref Frames
Format settings, CABAC : Yes
Format settings, Reference frames : 3 frames
Codec ID : V_MPEG4/ISO/AVC
Duration : 2 h 1 min
Bit rate mode : Variable
Bit rate : 22.0 Mb/s
Maximum bit rate : 34.0 Mb/s
Width : 1 920 pixels
Height : 1 080 pixels
Display aspect ratio : 16:9
Frame rate mode : Constant
Frame rate : 23.976 (24000/1001) FPS
Color space : YUV
Chroma subsampling : 4:2:0
Bit depth : 8 bits
Scan type : Progressive
Bits/(Pixel*Frame) : 0.443
Stream size : 18.0 GiB (93%)
Title : A.Cry.in.the.Dark.1988.1080p.BluRay.REMUX.AVC.DTS-HD.MA.2.0-FGT
Writing library : x264 core 152 r2854 e9a5903
Encoding settings : cabac=1 / ref=1 / deblock=1:-1:-1 / analyse=0x1:0 / me=dia / subme=2 / psy=1 / psy_rd=1.00:0.15 / mixed_ref=0 / me_range=16 / chroma_me=1 / trellis=0 / 8x8dct=0 / cqm=0 / deadzone=21,11 / fast_pskip=1 / chroma_qp_offset=0 / threads=16 / lookahead_threads=5 / sliced_threads=0 / slices=4 / nr=0 / decimate=1 / interlaced=0 / bluray_compat=1 / constrained_intra=0 / bframes=3 / b_pyramid=1 / b_adapt=1 / b_bias=0 / direct=3 / weightb=1 / open_gop=0 / weightp=1 / keyint=24 / keyint_min=1 / scenecut=40 / intra_refresh=0 / rc_lookahead=24 / rc=abr / mbtree=1 / bitrate=22000 / ratetol=1.0 / qcomp=0.60 / qpmin=0 / qpmax=69 / qpstep=4 / vbv_maxrate=34000 / vbv_bufsize=30000 / nal_hrd=vbr / filler=0 / ip_ratio=1.40 / aq=1:1.00
Language : English
Default : No
Forced : No
Color range : Limited
Color primaries : BT.709
Transfer characteristics : BT.709
Matrix coefficients : BT.709

Audio
ID : 2
Format : DTS XLL
Format/Info : Digital Theater Systems
Commercial name : DTS-HD Master Audio
Codec ID : A_DTS
Duration : 2 h 1 min
Bit rate mode : Variable
Bit rate : 1 557 kb/s
Channel(s) : 2 channels
Channel layout : L R
Sampling rate : 48.0 kHz
Frame rate : 93.750 FPS (512 SPF)
Bit depth : 16 bits
Compression mode : Lossless
Stream size : 1.32 GiB (7%)
Title : A.Cry.in.the.Dark.1988.1080p.BluRay.REMUX.AVC.DTS-HD.MA.2.0-FGT
Language : English
Default : Yes
Forced : No

Text
ID : 3
Format : PGS
Muxing mode : zlib
Codec ID : S_HDMV/PGS
Codec ID/Info : Picture based subtitle format used on BDs/HD-DVDs
Duration : 1 h 54 min
Bit rate : 32.5 kb/s
Count of elements : 3033
Stream size : 26.7 MiB (0%)
Title : English-PGS
Language : English
Default : Yes
Forced : No

Menu
00:00:00.000 : en:Chapter 01
00:08:50.821 : en:Chapter 02
00:20:10.876 : en:Chapter 03
00:29:39.861 : en:Chapter 04
00:39:32.286 : en:Chapter 05
00:50:01.373 : en:Chapter 06
01:00:31.919 : en:Chapter 07
01:09:42.720 : en:Chapter 08
01:20:03.799 : en:Chapter 09
01:30:25.920 : en:Chapter 10
01:41:28.499 : en:Chapter 11
01:51:22.217 : en:Chapter 12

[size=13.3333px][size=13.3333px][size=13.3333px]


回復下載:





游客,如果您要查看本帖隱藏內容請回復,您還可以免扣高清幣免回復下載:http://www.ggchty.live/plugin.php?id=wyfaka_url:url


回復

使用道具 舉報

永恒神話

高清幣
5615
金錢
16654
鮮花
0
在線時間
3125 小時
最后登錄
2019-10-13
沙發
發表于 4 天前 | 只看該作者
感謝樓主分享高清資源!
回復 支持 反對

使用道具 舉報

永恒神話

高清幣
13526
金錢
38309
鮮花
10
在線時間
2540 小時
最后登錄
2019-10-13
板凳
發表于 4 天前 | 只看該作者

我看不錯噢 謝謝樓主!中國高清論壇越來越好!
回復 支持 反對

使用道具 舉報

金雞獎主角

高清幣
5
金錢
3977
鮮花
0
在線時間
905 小時
最后登錄
2019-10-13
地板
發表于 4 天前 | 只看該作者
樓主發貼辛苦了,謝謝樓主分享!我覺得中國高清論壇是注冊對了!
回復 支持 反對

使用道具 舉報

好萊塢明星

高清幣
1484
金錢
6373
鮮花
0
在線時間
1287 小時
最后登錄
2019-10-13
5#
發表于 4 天前 | 只看該作者
thank you very much
回復 支持 反對

使用道具 舉報

天王巨星

高清幣
61
金錢
2719
鮮花
0
在線時間
585 小時
最后登錄
2019-10-12
6#
發表于 4 天前 | 只看該作者
中國高清論壇
回復 支持 反對

使用道具 舉報

超級明星

高清幣
2015
金錢
4327
鮮花
0
在線時間
361 小時
最后登錄
2019-10-13
7#
發表于 4 天前 | 只看該作者

其實我一直覺得樓主的品味不錯!呵呵!中國高清論壇太棒了!
回復 支持 反對

使用道具 舉報

VIP貴賓

高清幣
16848
金錢
67380
鮮花
0
在線時間
2778 小時
最后登錄
2019-10-13
8#
發表于 4 天前 | 只看該作者
樓主發貼辛苦了,謝謝樓主分享!我覺得中國高清論壇是注冊對了!
回復 支持 反對

使用道具 舉報

人氣偶像

高清幣
41
金錢
822
鮮花
0
在線時間
92 小時
最后登錄
2019-10-13
9#
發表于 4 天前 | 只看該作者
樓主發貼辛苦了,謝謝樓主分享!我覺得中國高清論壇是注冊對了!
回復 支持 反對

使用道具 舉報

永恒神話

高清幣
7705
金錢
14413
鮮花
0
在線時間
4723 小時
最后登錄
2019-10-13
10#
發表于 4 天前 | 只看該作者

謝謝樓主分享!
回復 支持 反對

使用道具 舉報

懶得打字嘛,點擊右側快捷回復 【右側內容,后臺自定義】
您需要登錄后才可以回帖 登錄 | 立即注冊

本版積分規則

QQ|手機版|小黑屋|中國高清論壇 ( 黔ICP備16007815號-1 )

GMT+8, 2019-10-13 22:44 , Processed in 0.049074 second(s), 23 queries .

Powered by Discuz! X3.4

© 2001-2017 Comsenz Inc.

快速回復 返回頂部 返回列表
排列3总跨度振幅走势图