中國高清論壇

 找回密碼
 立即注冊
亞博
搜索
查看: 274|回復: 71
打印 上一主題 下一主題

[REMUX] 天荒地老不了情.1935.CRITERION.1080p.BluRay.REMUX.AVC.LPCM.1.0-FGT

  [復制鏈接]

高清發布組長

高清幣
2171
金錢
4464
鮮花
0
在線時間
351 小時
最后登錄
2019-10-13
跳轉到指定樓層
樓主
發表于 4 天前 | 只看該作者 回帖獎勵 |倒序瀏覽 |閱讀模式


[size=13.3333px]◎譯  名 天荒地老不了情
[size=13.3333px]◎片  名 Magnificent Obsession
[size=13.3333px]◎年  代 1935
[size=13.3333px]◎產  地 美國
[size=13.3333px]◎類  別 劇情 / 愛情
[size=13.3333px]◎語  言 英語 / 法語
[size=13.3333px]◎上映日期 1936-01-21
[size=13.3333px]◎IMDb評分 6.9/10 from 683 users
[size=13.3333px]◎IMDb鏈接 http://www.imdb.com/title/tt0026667
[size=13.3333px]◎豆瓣評分 7.0/10 from 62 users
[size=13.3333px]◎豆瓣鏈接 https://movie.douban.com/subject/3249563/
[size=13.3333px]◎片  長 112 分鐘
[size=13.3333px]◎導  演 John M. Stahl
[size=13.3333px]◎編  劇 Lloyd C. Douglas
[size=13.3333px]◎主  演 Robert Taylor
[size=13.3333px]      Irene Dunne


[size=13.3333px]◎標  簽 美國 | 愛情 | 美國電影 | 1930s | RobertTaylor | 1935 | 黑白 | Robert_Taylor

[size=13.3333px]◎簡  介

[size=13.3333px]  The life of spoiled Robert Merrick (Robert Taylor) is saved through the use of a hospital's only pulmotor, which results in the death of Dr. Hudson, a selfless, brilliant surgeon and generous philanthropist. Merrick falls in love with Hudson's widow, Helen (Irene Dunne), though she holds him responsible for her husband's demise. One day, he insists on driving her home and makes a pass at her. She gets out and is struck by another car, losing her sight.
[size=13.3333px]  He watches over her and visits her during her recuperation, concealing his identity and calling himself Dr. Robert. When he finds out that she is nearly penniless, he secretly pays for specialists to try to restore her vision. Finally, she travels to Paris and is told that her eyesight is gone forever. Robert follows her, confesses his true identity and proposes marriage. She forgives him, but goes away, not wanting to be a burden to him.
[size=13.3333px]  Years later, Robert has become a brain surgeon. He learns that Helen urgently needs an operation, which he performs. When she awakens, her sight has miraculously returned.
Video
ID : 1
Format : AVC
Format/Info : Advanced Video Codec
Format profile : [email protected]
Format settings : CABAC / 4 Ref Frames
Format settings, CABAC : Yes
Format settings, Reference frames : 4 frames
Codec ID : V_MPEG4/ISO/AVC
Duration : 1 h 42 min
Bit rate mode : Variable
Bit rate : 35.3 Mb/s
Maximum bit rate : 37.0 Mb/s
Width : 1 920 pixels
Height : 1 080 pixels
Display aspect ratio : 16:9
Frame rate mode : Constant
Frame rate : 23.976 (24000/1001) FPS
Color space : YUV
Chroma subsampling : 4:2:0
Bit depth : 8 bits
Scan type : Progressive
Bits/(Pixel*Frame) : 0.709
Stream size : 25.2 GiB (97%)
Title : Magnificent.Obsession.1935.CRITERION.1080p.BluRay.REMUX.AVC.LPCM.1.0-FGT
Language : English
Default : No
Forced : No

Audio
ID : 2
Format : PCM
Format settings : Little / Signed
Codec ID : A_PCM/INT/LIT
Duration : 1 h 42 min
Bit rate mode : Constant
Bit rate : 1 152 kb/s
Sampling rate : 48.0 kHz
Frame rate : 30.000 FPS (1600 SPF)
Bit depth : 24 bits
Stream size : 842 MiB (3%)
Title : Magnificent.Obsession.1935.CRITERION.1080p.BluRay.REMUX.AVC.LPCM.1.0-FGT
Language : English
Default : Yes
Forced : No

Text
ID : 3
Format : PGS
Muxing mode : zlib
Codec ID : S_HDMV/PGS
Codec ID/Info : Picture based subtitle format used on BDs/HD-DVDs
Duration : 1 h 39 min
Bit rate : 50.7 kb/s
Count of elements : 2970
Stream size : 36.2 MiB (0%)
Title : English-PGS
Language : English
Default : Yes
Forced : No

Menu
00:00:00.000 : en:Chapter 01
00:03:44.349 : en:Chapter 02
00:06:45.405 : en:Chapter 03
00:11:45.329 : en:Chapter 04
00:18:23.435 : en:Chapter 05
00:23:10.680 : en:Chapter 06
00:25:31.780 : en:Chapter 07
00:30:34.666 : en:Chapter 08
00:34:26.898 : en:Chapter 09
00:41:51.425 : en:Chapter 10
00:46:18.525 : en:Chapter 11
00:50:28.984 : en:Chapter 12
00:58:06.149 : en:Chapter 13
01:04:23.442 : en:Chapter 14
01:06:51.465 : en:Chapter 15
01:14:05.149 : en:Chapter 16
01:20:18.980 : en:Chapter 17
01:23:56.531 : en:Chapter 18
01:26:57.212 : en:Chapter 19
01:32:02.266 : en:Chapter 20
01:36:47.551 : en:Chapter 21

[size=13.3333px][size=13.3333px][size=13.3333px]


回復下載:





游客,如果您要查看本帖隱藏內容請回復,您還可以免扣高清幣免回復下載:http://www.ggchty.live/plugin.php?id=wyfaka_url:url


回復

使用道具 舉報

永恒神話

高清幣
5615
金錢
16654
鮮花
0
在線時間
3125 小時
最后登錄
2019-10-13
沙發
發表于 4 天前 | 只看該作者
感謝樓主分享高清資源!
回復 支持 反對

使用道具 舉報

永恒神話

高清幣
13526
金錢
38309
鮮花
10
在線時間
2540 小時
最后登錄
2019-10-13
板凳
發表于 4 天前 | 只看該作者

我看不錯噢 謝謝樓主!中國高清論壇越來越好!
回復 支持 反對

使用道具 舉報

金雞獎主角

高清幣
5
金錢
3977
鮮花
0
在線時間
905 小時
最后登錄
2019-10-13
地板
發表于 4 天前 | 只看該作者
樓主發貼辛苦了,謝謝樓主分享!我覺得中國高清論壇是注冊對了!
回復 支持 反對

使用道具 舉報

好萊塢明星

高清幣
1484
金錢
6373
鮮花
0
在線時間
1287 小時
最后登錄
2019-10-13
5#
發表于 4 天前 | 只看該作者
thank you very much
回復 支持 反對

使用道具 舉報

天王巨星

高清幣
61
金錢
2719
鮮花
0
在線時間
585 小時
最后登錄
2019-10-12
6#
發表于 4 天前 | 只看該作者
中國高清論壇
回復 支持 反對

使用道具 舉報

人氣偶像

高清幣
336
金錢
633
鮮花
0
在線時間
77 小時
最后登錄
2019-10-13
7#
發表于 4 天前 | 只看該作者
樓主發貼辛苦了,謝謝樓主分享!我覺得中國高清論壇是注冊對了!
回復 支持 反對

使用道具 舉報

金雞獎主角

高清幣
850
金錢
3234
鮮花
0
在線時間
277 小時
最后登錄
2019-10-13
8#
發表于 4 天前 | 只看該作者
樓主發貼辛苦了,謝謝樓主分享!我覺得中國高清論壇是注冊對了!
回復 支持 反對

使用道具 舉報

VIP貴賓

高清幣
16848
金錢
67380
鮮花
0
在線時間
2778 小時
最后登錄
2019-10-13
9#
發表于 4 天前 | 只看該作者
樓主發貼辛苦了,謝謝樓主分享!我覺得中國高清論壇是注冊對了!
回復 支持 反對

使用道具 舉報

人氣偶像

高清幣
144
金錢
1096
鮮花
0
在線時間
49 小時
最后登錄
2019-10-12
10#
發表于 4 天前 | 只看該作者

我看不錯噢 謝謝樓主!中國高清論壇越來越好!
回復 支持 反對

使用道具 舉報

懶得打字嘛,點擊右側快捷回復 【右側內容,后臺自定義】
您需要登錄后才可以回帖 登錄 | 立即注冊

本版積分規則

QQ|手機版|小黑屋|中國高清論壇 ( 黔ICP備16007815號-1 )

GMT+8, 2019-10-13 22:45 , Processed in 0.045265 second(s), 23 queries .

Powered by Discuz! X3.4

© 2001-2017 Comsenz Inc.

快速回復 返回頂部 返回列表
排列3总跨度振幅走势图