中國高清論壇

 找回密碼
 立即注冊
亞博
搜索
查看: 741|回復: 78
打印 上一主題 下一主題

[其他] 慶祝中華人民共和國成立70周年聯歡活動.2160p.CCTV-4K.UHDTV.HEVC.DD5.1-FLTTH 24.8G

  [復制鏈接]

高清發布組

高清幣
3381
金錢
4433
鮮花
5
在線時間
967 小時
最后登錄
2019-10-10
跳轉到指定樓層
樓主

  1. General
  2. ID                                       : 1 (0x1)
  3. Complete name                            : 慶祝中華人民共和國成立70周年聯歡活動.20191001.REPEAT.2160p.CCTV-4K.UHDTV.HEVC.10bit.HDR.DD5.1-FLTTH.ts
  4. Format                                   : MPEG-TS
  5. File size                                : 24.8 GiB
  6. Duration                                 : 1 h 40 min
  7. Overall bit rate mode                    : Variable
  8. Overall bit rate                         : 35.4 Mb/s

  9. Video
  10. ID                                       : 7010 (0x1B62)
  11. Menu ID                                  : 701 (0x2BD)
  12. Format                                   : HEVC
  13. Format/Info                              : High Efficiency Video Coding
  14. Format profile                           : Main [email protected]@High
  15. Codec ID                                 : 36
  16. Duration                                 : 1 h 40 min
  17. Bit rate                                 : 33.2 Mb/s
  18. Width                                    : 3 840 pixels
  19. Height                                   : 2 160 pixels
  20. Display aspect ratio                     : 16:9
  21. Frame rate                               : 50.000 FPS
  22. Standard                                 : Component
  23. Color space                              : YUV
  24. Chroma subsampling                       : 4:2:0 (Type 0)
  25. Bit depth                                : 10 bits
  26. Bits/(Pixel*Frame)                       : 0.080
  27. Stream size                              : 23.2 GiB (94%)
  28. Color range                              : Limited
  29. Color primaries                          : BT.2020
  30. Transfer characteristics                 : HLG
  31. Matrix coefficients                      : BT.2020 non-constant

  32. Audio
  33. ID                                       : 7011 (0x1B63)
  34. Menu ID                                  : 701 (0x2BD)
  35. Format                                   : AC-3
  36. Format/Info                              : Audio Coding 3
  37. Commercial name                          : Dolby Digital
  38. Codec ID                                 : 129
  39. Duration                                 : 1 h 40 min
  40. Bit rate mode                            : Constant
  41. Bit rate                                 : 448 kb/s
  42. Channel(s)                               : 6 channels
  43. Channel layout                           : L R C LFE Ls Rs
  44. Sampling rate                            : 48.0 kHz
  45. Frame rate                               : 31.250 FPS (1536 SPF)
  46. Bit depth                                : 16 bits
  47. Compression mode                         : Lossy
  48. Delay relative to video                  : -185 ms
  49. Stream size                              : 321 MiB (1%)
  50. Service kind                             : Complete Main

復制代碼
節目介紹:
    《慶祝中華人民共和國成立70周年聯歡活動》是為了慶祝中華人民共和國成立70周年,在北京天安門廣場舉行的盛大聯歡活動。
    該活動分為“紅旗頌”“我們走在大路上”“在希望的田野上”“領航新時代”4個篇章,由主題表演、中心聯歡表演、群眾聯歡和煙花表演組成。
    該聯歡活動于2019年10月1日晚20:00舉行。中央廣播電視總臺綜合頻道、新聞頻道、財經頻道、綜藝頻道、中文國際頻道、外語頻道等電視頻道,中國之聲、經濟之聲、音樂之聲、英語環球廣播等廣播頻率,以及新華網等進行現場直播。全中國各級廣播電視主頻率、主頻道,各新聞網站、新媒體平臺同步轉播。
    整場聯歡活動中沒有啟用任何一位專業的歌唱演員,所有歌曲全都由聯歡群眾唱響,“去表演化”、“去專業化”正是主創團隊的編排理念。張藝謀認為在中華人民共和國的生日當中,要體現出人民的歡樂、人民的慶典,所以他調動了幾萬人在廣場上成為一個真正的歡樂的海洋,體現老百姓的參與,也體現了新時代人民的精神面貌。
    夜空中的煙花創意來源于焰火總設計師蔡國強。他認為北京這一個場地跟別的地方不同,它是一個古代的都城,東西南北非常清晰。長安街能夠像個大門一樣把這個城市給打開。當晚會宣布開始的時候,最好是能夠利用北京的這一個氣勢、它的格局,感受到一種歷史的時間感,時間感就是要有足夠大的空間,足夠大的空間才能表現時間感。
    在聯歡活動中,煙花與舞蹈在低空配合呈現出麥浪滾滾,在高空中,則更是和著音樂節拍將現場表演一次次推向高潮。對此蔡國強表示音樂燃放就是整個表演有音樂,制作團隊再把它換成時間碼。這些全部是在電腦控制,所以對于制作團隊而言整個燃放最重要的是一定要有個編程。和其他演出所不同的是,由于煙花是消耗品,為了最終的呈現效果,所有的演練過程中都沒有辦法百分百呈現。前兩次集中演練是使用電子編程模擬,最后一次集中演練也只是燃放了30%的煙花。

下載地址:
https://pan.baidu.com/s/1nyYGltN6k_je6NXHl2hUpw 提取碼:9up9

回復

使用道具 舉報

超級明星

高清幣
30
金錢
9385
鮮花
0
在線時間
1391 小時
最后登錄
2019-10-13
沙發
發表于 5 天前 | 只看該作者

樓主太厲害了!樓主,電影應該很好看我覺得中國高清論壇真是個好地方!
回復 支持 反對

使用道具 舉報

永恒神話

高清幣
10190
金錢
31823
鮮花
0
在線時間
2290 小時
最后登錄
2019-10-13
板凳
發表于 5 天前 | 只看該作者

樓主太厲害了!樓主,電影應該很好看我覺得中國高清論壇真是個好地方!
回復 支持 反對

使用道具 舉報

知名藝人

高清幣
7
金錢
460
鮮花
0
在線時間
63 小時
最后登錄
2019-10-13
地板
發表于 5 天前 | 只看該作者

樓主太厲害了!樓主,電影應該很好看我覺得中國高清論壇真是個好地方!
回復 支持 反對

使用道具 舉報

superstar

高清幣
4542
金錢
12539
鮮花
0
在線時間
1179 小時
最后登錄
2019-10-13
5#
發表于 5 天前 | 只看該作者
樓主發貼辛苦了,謝謝樓主分享!我覺得中國高清論壇是注冊對了!
回復 支持 反對

使用道具 舉報

金雞獎主角

高清幣
1398
金錢
4984
鮮花
0
在線時間
487 小時
最后登錄
2019-10-13
6#
發表于 5 天前 | 只看該作者
樓主發貼辛苦了,謝謝樓主分享!
回復 支持 反對

使用道具 舉報

人氣偶像

高清幣
79
金錢
1448
鮮花
0
在線時間
48 小時
最后登錄
2019-10-13
7#
發表于 5 天前 | 只看該作者
樓主發貼辛苦了,謝謝樓主分享!我覺得中國高清論壇是注冊對了!
回復 支持 反對

使用道具 舉報

影壇巨星

高清幣
2954
金錢
6837
鮮花
0
在線時間
710 小時
最后登錄
2019-10-9
8#
發表于 5 天前 | 只看該作者
樓主發貼辛苦了,謝謝樓主分享!我覺得中國高清論壇是注冊對了!
回復 支持 反對

使用道具 舉報

超級明星

高清幣
1514
金錢
6307
鮮花
0
在線時間
2142 小時
最后登錄
2019-10-13
9#
發表于 5 天前 | 只看該作者

我看不錯噢 謝謝樓主!中國高清論壇越來越好!
回復 支持 反對

使用道具 舉報

人氣偶像

高清幣
106
金錢
1838
鮮花
0
在線時間
348 小時
最后登錄
2019-10-13
10#
發表于 5 天前 | 只看該作者

其實我一直覺得樓主的品味不錯!呵呵!中國高清論壇太棒了!
回復 支持 反對

使用道具 舉報

懶得打字嘛,點擊右側快捷回復 【右側內容,后臺自定義】
您需要登錄后才可以回帖 登錄 | 立即注冊

本版積分規則

QQ|手機版|小黑屋|中國高清論壇 ( 黔ICP備16007815號-1 )

GMT+8, 2019-10-13 22:40 , Processed in 0.047842 second(s), 23 queries .

Powered by Discuz! X3.4

© 2001-2017 Comsenz Inc.

快速回復 返回頂部 返回列表
排列3总跨度振幅走势图