中國高清論壇

 找回密碼
 立即注冊
亞博
搜索
查看: 6622|回復: 1914
打印 上一主題 下一主題

[驚悚片] 巨鱷風暴/噬逃險鱷/鱷魔(臺)Crawl.2019.1080p.BluRay.x264.DTS-HD.MA.7.1-CHD 12.31G

  [復制鏈接]

高清發布組

高清幣
11291
金錢
200
鮮花
0
在線時間
85 小時
最后登錄
2019-10-12
跳轉到指定樓層
樓主
發表于 2019-10-5 01:09:01 | 只看該作者 回帖獎勵 |倒序瀏覽 |閱讀模式



◎譯  名 巨鱷風暴/噬逃險鱷(港) / 爬行 /鱷魔(臺)
◎片  名 Crawl
◎年  代 2019
◎產  地 美國
◎類  別 劇情 / 驚悚 / 災難
◎語  言 英語
◎上映日期 2019-07-12(美國) / 2019-09-12(中國大陸)
◎IMDb評分  6.5/10 from 15541 users
◎IMDb鏈接  http://www.imdb.com/title/tt8364368
◎豆瓣評分 5.9/10 from 19335 users
◎豆瓣鏈接 https://movie.douban.com/subject/30210700/
◎片  長 87分鐘
◎導  演 亞歷山大·阿嘉 Alexandre Aja
◎編  劇 邁克爾·拉斯姆森 Michael Rasmussen / 肖恩·拉斯姆森 Shawn Rasmussen
◎主  演 卡雅·斯考達里奧 Kaya Scodelario
       巴里·佩珀 Barry Pepper
       羅斯·安德森 Ross Anderson
       安森·布恩 Anson Boon
       喬治·索納 George Somner
       阿米‧梅特卡夫 Ami Metcalf
       何塞‧帕爾馬 Jose Palma
       莫菲德·克拉克 Morfydd Clark
       安娜瑪麗亞·塞爾達 Annamaria Serda
       薩凡納·斯泰恩 Savannah Steyn
       喬瓦娜·德拉加 Jovana Dragas
       柯林·麥克法蘭 Colin McFarlane
       蒂娜‧普里比切維奇 Tina Pribicevic


◎標  簽 驚悚 | 災難 | 鱷魚 | 美國 | 恐怖 | 血腥 | 2019 | 怪獸

◎簡  介  

  一場猛烈的颶風正在逼近美國佛羅里達州的一座小鎮。女主角海莉(卡雅·斯考達里奧飾)在游泳訓練中接到了姐姐的電話,他們的父親(巴里·佩珀飾)已經失聯多時,她非常擔心父親的安危。海莉不顧撤離命令獨自前往父親家中,并最終在地下室里找到了身受重傷的父親。洪水暴漲眼看就要將地下室淹沒,海莉很快就意識到最可怕的并不是洪水,而是隱藏在水中的致命猛獸--鱷魚。

  1. Video
  2. ID : 1
  3. Format : AVC
  4. Format/Info : Advanced Video Codec
  5. Format profile : [email protected]
  6. Format settings : CABAC / 4 Ref Frames
  7. Format settings, CABAC : Yes
  8. Format settings, Reference frames : 4 frames
  9. Codec ID : V_MPEG4/ISO/AVC
  10. Duration : 1 h 27 min
  11. Bit rate : 15.3 Mb/s
  12. Width : 1 920 pixels
  13. Height : 804 pixels
  14. Display aspect ratio : 2.40:1
  15. Frame rate mode : Constant
  16. Frame rate : 23.976 (24000/1001) FPS
  17. Color space : YUV
  18. Chroma subsampling : 4:2:0
  19. Bit depth : 8 bits
  20. Scan type : Progressive
  21. Bits/(Pixel*Frame) : 0.412
  22. Stream size : 9.33 GiB (76%)
  23. Title : Crawl.2019.1080p.BluRay.x264.DTS-HD.MA.7.1-CHD
  24. Writing library : x264 core 157 r2867+150 7e91e0e t_mod_Custom_2 [[email protected] X86_64]
  25. Encoding settings : cabac=1 / ref=4 / deblock=1:-3:-3 / analyse=0x3:0x133 / me=umh / subme=11 / psy=1 / fade_compensate=0.00 / psy_rd=0.90:0.10 / mixed_ref=1 / me_range=64 / chroma_me=1 / trellis=2 / 8x8dct=1 / cqm=0 / deadzone=21,11 / fast_pskip=0 / chroma_qp_offset=-4 / threads=25 / lookahead_threads=4 / sliced_threads=0 / nr=0 / decimate=1 / interlaced=0 / bluray_compat=0 / constrained_intra=0 / fgo=0 / bframes=8 / b_pyramid=2 / b_adapt=2 / b_bias=0 / direct=3 / weightb=1 / open_gop=0 / weightp=2 / keyint=250 / keyint_min=23 / scenecut=40 / intra_refresh=0 / rc_lookahead=60 / rc=crf / mbtree=0 / crf=18.0000 / qcomp=0.70 / qpmin=0:0:0 / qpmax=69:69:69 / qpstep=4 / vbv_maxrate=35000 / vbv_bufsize=35000 / crf_max=0.0 / nal_hrd=none / filler=0 / ip_ratio=1.40 / pb_ratio=1.30 / aq=3:1.00 / aq-sensitivity=10.00 / aq-factor=1.00:1.00:1.00 / aq2=0 / aq3=0
  26. Language : English
  27. Default : Yes
  28. Forced : No

  29. Audio
  30. ID : 2
  31. Format : DTS XLL
  32. Format/Info : Digital Theater Systems
  33. Commercial name : DTS-HD Master Audio
  34. Codec ID : A_DTS
  35. Duration : 1 h 27 min
  36. Bit rate mode : Variable
  37. Bit rate : 4 860 kb/s
  38. Channel(s) : 8 channels
  39. Channel layout : C L R LFE Lb Rb Lss Rss
  40. Sampling rate : 48.0 kHz
  41. Frame rate : 93.750 FPS (512 SPF)
  42. Bit depth : 24 bits
  43. Compression mode : Lossless
  44. Stream size : 2.97 GiB (24%)
  45. Title : Crawl.2019.1080p.BluRay.x264.DTS-HD.MA.7.1-CHD
  46. Language : English
  47. Default : Yes
  48. Forced : No

  49. Text #1
  50. ID : 3
  51. Format : UTF-8
  52. Codec ID : S_TEXT/UTF8
  53. Codec ID/Info : UTF-8 Plain Text
  54. Duration : 1 h 19 min
  55. Bit rate : 25 b/s
  56. Count of elements : 604
  57. Stream size : 14.9 KiB (0%)
  58. Title : English-SRT
  59. Language : English
  60. Default : Yes
  61. Forced : No

  62. Text #2
  63. ID : 4
  64. Format : PGS
  65. Muxing mode : zlib
  66. Codec ID : S_HDMV/PGS
  67. Codec ID/Info : Picture based subtitle format used on BDs/HD-DVDs
  68. Duration : 1 h 16 min
  69. Bit rate : 18.9 kb/s
  70. Count of elements : 1134
  71. Stream size : 10.4 MiB (0%)
  72. Title : English-PGS
  73. Language : English
  74. Default : No
  75. Forced : No
復制代碼





游客,如果您要查看本帖隱藏內容請回復,您還可以免扣高清幣免回復下載:http://www.ggchty.live/plugin.php?id=wyfaka_url:url
回復

使用道具 舉報

人氣偶像

高清幣
71
金錢
1746
鮮花
0
在線時間
341 小時
最后登錄
2019-10-13
推薦
發表于 2019-10-5 01:58:55 | 只看該作者
謝謝樓主分享!
回復 支持 0 反對 1

使用道具 舉報

金雞獎主角

高清幣
13
金錢
4122
鮮花
0
在線時間
1851 小時
最后登錄
2019-10-7
沙發
發表于 2019-10-5 01:13:34 | 只看該作者
謝謝樓主分享
回復 支持 反對

使用道具 舉報

知名藝人

高清幣
2
金錢
594
鮮花
0
在線時間
473 小時
最后登錄
2019-10-13
板凳
發表于 2019-10-5 01:19:35 | 只看該作者

樓主太厲害了!樓主,電影應該很好看我覺得中國高清論壇真是個好地方!
回復 支持 反對

使用道具 舉報

金雞獎主角

高清幣
0
金錢
5350
鮮花
0
在線時間
477 小時
最后登錄
2019-10-13
地板
發表于 2019-10-5 01:29:15 | 只看該作者
謝謝樓主分享
回復 支持 反對

使用道具 舉報

金雞獎主角

高清幣
85
金錢
7133
鮮花
0
在線時間
983 小時
最后登錄
2019-10-13
5#
發表于 2019-10-5 01:31:51 | 只看該作者
樓主發貼辛苦了,謝謝樓主分享!我覺得中國高清論壇是注冊對了!
回復 支持 反對

使用道具 舉報

人氣偶像

高清幣
34
金錢
1951
鮮花
0
在線時間
370 小時
最后登錄
2019-10-13
6#
發表于 2019-10-5 01:35:53 | 只看該作者

樓主太厲害了!樓主,電影應該很好看我覺得中國高清論壇真是個好地方!
回復 支持 反對

使用道具 舉報

金雞獎主角

高清幣
441
金錢
4317
鮮花
0
在線時間
1807 小時
最后登錄
2019-10-13
7#
發表于 2019-10-5 01:38:29 | 只看該作者
感謝分享下載,新
回復 支持 反對

使用道具 舉報

金雞獎主角

高清幣
45
金錢
4354
鮮花
0
在線時間
569 小時
最后登錄
2019-10-13
8#
發表于 2019-10-5 01:42:59 | 只看該作者

樓主太厲害了!樓主,電影應該很好看我覺得中國高清論壇真是個好地方!
回復 支持 反對

使用道具 舉報

天王巨星

高清幣
184
金錢
1942
鮮花
0
在線時間
585 小時
最后登錄
2019-10-13
9#
發表于 2019-10-5 01:49:03 | 只看該作者

這東西我收了!謝謝樓主!中國高清論壇真好!
回復 支持 反對

使用道具 舉報

懶得打字嘛,點擊右側快捷回復 【右側內容,后臺自定義】
您需要登錄后才可以回帖 登錄 | 立即注冊

本版積分規則

QQ|手機版|小黑屋|中國高清論壇 ( 黔ICP備16007815號-1 )

GMT+8, 2019-10-13 22:34 , Processed in 0.048338 second(s), 26 queries .

Powered by Discuz! X3.4

© 2001-2017 Comsenz Inc.

快速回復 返回頂部 返回列表
排列3总跨度振幅走势图