中國高清論壇

 找回密碼
 立即注冊
亞博
搜索
查看: 648|回復: 144
打印 上一主題 下一主題

[REMUX] 一條狗的使命2.2019.1080p.BluRay.REMUX.DTS-HD.MA.TrueHD.7.1-FGT

  [復制鏈接]

高清發布組長

高清幣
2171
金錢
4464
鮮花
0
在線時間
351 小時
最后登錄
2019-10-13
跳轉到指定樓層
樓主
發表于 2019-8-21 09:13:19 | 只看該作者 回帖獎勵 |倒序瀏覽 |閱讀模式


◎譯  名 一條狗的使命2 / A Dog's Purpose 2 / 一條狗的旅程 / 為了與你相遇2 / 再見亦是狗朋友2(港) / 狗狗的旅程(臺)
◎片  名 A Dog's Journey
◎年  代 2019
◎產  地 美國
◎類  別 劇情 / 喜劇 / 家庭
◎語  言 英語
◎上映日期 2019-05-17(美國/中國大陸)
◎IMDb評分 7.4/10 from 3509 users
◎IMDb鏈接 http://www.imdb.com/title/tt8385474
◎豆瓣評分 6.9/10 from 36952 users
◎豆瓣鏈接 https://movie.douban.com/subject/27074316/
◎片  長 108分鐘
◎導  演 蓋爾·曼庫索 Gail Mancuso
◎編  劇 W·布魯斯·卡梅倫 W. Bruce Cameron / 瑪雅·福布斯 Maya Forbes / 凱瑟琳·邁克 Cathryn Michon / 華萊士·沃洛達斯基 Wallace Wolodarsky
◎主  演 丹尼斯·奎德 Dennis Quaid
      凱瑟琳·普雷斯科特 Kathryn Prescott
      劉憲華 Henry Lau
      瑪格·海根柏格 Marg Helgenberger
      貝蒂·吉爾平 Betty Gilpin
      喬什·加德 Josh Gad
      艾比·萊德·弗特森 Abby Ryder Fortson
      杰克·曼利 Jake Manley
      達妮埃拉·巴博薩 Daniela Barbosa
      陳琦燁 Ian Chen
      杰夫·羅普 Jeff Roop
      吉姆·科比 Jim Kirby


◎標  簽 治愈 | 溫情 | 狗狗 | 感人 | 狗 | 愛 | 人性 | 2019

◎簡  介

  小狗貝利延續使命,在主人伊森的囑托下,通過不斷的生命輪回, 執著守護伊森的孫女CJ,將伊森對孫女的愛與陪伴,當做最重要的 使命和意義,最終幫助CJ收獲幸福,再次回到主人伊森身邊。
Video
ID : 1
Format : AVC
Format/Info : Advanced Video Codec
Format profile : [email protected]
Format settings : CABAC / 4 Ref Frames
Format settings, CABAC : Yes
Format settings, Reference frames : 4 frames
Codec ID : V_MPEG4/ISO/AVC
Duration : 1 h 48 min
Bit rate mode : Variable
Bit rate : 33.0 Mb/s
Maximum bit rate : 35.0 Mb/s
Width : 1 920 pixels
Height : 1 080 pixels
Display aspect ratio : 16:9
Frame rate mode : Constant
Frame rate : 23.976 (24000/1001) FPS
Color space : YUV
Chroma subsampling : 4:2:0
Bit depth : 8 bits
Scan type : Progressive
Bits/(Pixel*Frame) : 0.663
Stream size : 25.0 GiB (74%)
Title : A.Dogs.Journey.2019.1080p.BluRay.REMUX.DTS-HD.MA.TrueHD.7.1-FGT
Language : English
Default : No
Forced : No

Audio #1
ID : 2
Format : MLP FBA
Format/Info : Meridian Lossless Packing FBA
Commercial name : Dolby TrueHD
Codec ID : A_TRUEHD
Duration : 1 h 48 min
Bit rate mode : Variable
Bit rate : 3 762 kb/s
Maximum bit rate : 5 184 kb/s
Channel(s) : 8 channels
Channel layout : L R C LFE Ls Rs Lb Rb
Sampling rate : 48.0 kHz
Frame rate : 1 200.000 FPS (40 SPF)
Compression mode : Lossless
Stream size : 2.86 GiB (8%)
Title : A.Dogs.Journey.2019.1080p.BluRay.REMUX.DTS-HD.MA.TrueHD.7.1-FGT
Language : English
Default : Yes
Forced : No

Audio #2
ID : 3
Format : DTS XLL
Format/Info : Digital Theater Systems
Commercial name : DTS-HD Master Audio
Codec ID : A_DTS
Duration : 1 h 48 min
Bit rate mode : Variable
Bit rate : 4 278 kb/s
Channel(s) : 8 channels
Channel layout : C L R LFE Lb Rb Lss Rss
Sampling rate : 48.0 kHz
Frame rate : 93.750 FPS (512 SPF)
Bit depth : 24 bits
Compression mode : Lossless
Stream size : 3.25 GiB (10%)
Title : A.Dogs.Journey.2019.1080p.BluRay.REMUX.DTS-HD.MA.TrueHD.7.1-FGT
Language : English
Default : No
Forced : No

Audio #3
ID : 4
Format : AC-3
Format/Info : Audio Coding 3
Commercial name : Dolby Digital
Codec ID : A_AC3
Duration : 1 h 48 min
Bit rate mode : Constant
Bit rate : 448 kb/s
Channel(s) : 6 channels
Channel layout : L R C LFE Ls Rs
Sampling rate : 48.0 kHz
Frame rate : 31.250 FPS (1536 SPF)
Bit depth : 16 bits
Compression mode : Lossy
Stream size : 348 MiB (1%)
Title : A.Dogs.Journey.2019.1080p.BluRay.REMUX.DTS-HD.MA.TrueHD.7.1-FGT
Language : English
Service kind : Complete Main
Default : No
Forced : No

Audio #4
ID : 5
Format : E-AC-3
Format/Info : Enhanced AC-3
Commercial name : Dolby Digital Plus
Format profile : Blu-ray Disc
Codec ID : A_EAC3
Duration : 1 h 48 min
Bit rate mode : Constant
Bit rate : 768 kb/s
Channel(s) : 8 channels
Channel layout : L R C LFE Ls Rs Lb Rb
Sampling rate : 48.0 kHz
Frame rate : 31.250 FPS (1536 SPF)
Compression mode : Lossy
Stream size : 597 MiB (2%)
Title : A.Dogs.Journey.2019.1080p.BluRay.REMUX.DTS-HD.MA.TrueHD.7.1-FGT
Language : Spanish
Service kind : Complete Main
Default : No
Forced : No

Audio #5
ID : 6
Format : AC-3
Format/Info : Audio Coding 3
Commercial name : Dolby Digital
Codec ID : A_AC3
Duration : 1 h 48 min
Bit rate mode : Constant
Bit rate : 448 kb/s
Channel(s) : 6 channels
Channel layout : L R C LFE Ls Rs
Sampling rate : 48.0 kHz
Frame rate : 31.250 FPS (1536 SPF)
Bit depth : 16 bits
Compression mode : Lossy
Stream size : 348 MiB (1%)
Title : A.Dogs.Journey.2019.1080p.BluRay.REMUX.DTS-HD.MA.TrueHD.7.1-FGT
Language : Spanish
Service kind : Complete Main
Default : No
Forced : No

Audio #6
ID : 7
Format : E-AC-3
Format/Info : Enhanced AC-3
Commercial name : Dolby Digital Plus
Format profile : Blu-ray Disc
Codec ID : A_EAC3
Duration : 1 h 48 min
Bit rate mode : Constant
Bit rate : 768 kb/s
Channel(s) : 8 channels
Channel layout : L R C LFE Ls Rs Lb Rb
Sampling rate : 48.0 kHz
Frame rate : 31.250 FPS (1536 SPF)
Compression mode : Lossy
Stream size : 597 MiB (2%)
Title : A.Dogs.Journey.2019.1080p.BluRay.REMUX.DTS-HD.MA.TrueHD.7.1-FGT
Language : French
Service kind : Complete Main
Default : No
Forced : No

Audio #7
ID : 8
Format : AC-3
Format/Info : Audio Coding 3
Commercial name : Dolby Digital
Codec ID : A_AC3
Duration : 1 h 48 min
Bit rate mode : Constant
Bit rate : 448 kb/s
Channel(s) : 6 channels
Channel layout : L R C LFE Ls Rs
Sampling rate : 48.0 kHz
Frame rate : 31.250 FPS (1536 SPF)
Bit depth : 16 bits
Compression mode : Lossy
Stream size : 348 MiB (1%)
Title : A.Dogs.Journey.2019.1080p.BluRay.REMUX.DTS-HD.MA.TrueHD.7.1-FGT
Language : French
Service kind : Complete Main
Default : No
Forced : No

Audio #8
ID : 9
Format : AC-3
Format/Info : Audio Coding 3
Commercial name : Dolby Digital
Codec ID : A_AC3
Duration : 1 h 48 min
Bit rate mode : Constant
Bit rate : 192 kb/s
Channel(s) : 2 channels
Channel layout : L R
Sampling rate : 48.0 kHz
Frame rate : 31.250 FPS (1536 SPF)
Bit depth : 16 bits
Compression mode : Lossy
Stream size : 149 MiB (0%)
Title : A.Dogs.Journey.2019.1080p.BluRay.REMUX.DTS-HD.MA.TrueHD.7.1-FGT
Language : English
Service kind : Complete Main
Default : No
Forced : No

Audio #9
ID : 10
Format : AC-3
Format/Info : Audio Coding 3
Commercial name : Dolby Digital
Codec ID : A_AC3
Duration : 1 h 48 min
Bit rate mode : Constant
Bit rate : 192 kb/s
Channel(s) : 2 channels
Channel layout : L R
Sampling rate : 48.0 kHz
Frame rate : 31.250 FPS (1536 SPF)
Bit depth : 16 bits
Compression mode : Lossy
Stream size : 149 MiB (0%)
Title : A.Dogs.Journey.2019.1080p.BluRay.REMUX.DTS-HD.MA.TrueHD.7.1-FGT
Language : English
Service kind : Complete Main
Default : No
Forced : No

Text #1
ID : 11
Format : UTF-8
Codec ID : S_TEXT/UTF8
Codec ID/Info : UTF-8 Plain Text
Duration : 1 h 40 min
Bit rate : 71 b/s
Count of elements : 1723
Stream size : 52.9 KiB (0%)
Title : English-SRT
Language : English
Default : Yes
Forced : No

Text #2
ID : 12
Format : PGS
Muxing mode : zlib
Codec ID : S_HDMV/PGS
Codec ID/Info : Picture based subtitle format used on BDs/HD-DVDs
Duration : 1 h 40 min
Bit rate : 52.7 kb/s
Count of elements : 3926
Stream size : 38.0 MiB (0%)
Title : English-PGS
Language : English
Default : No
Forced : No

Text #3
ID : 13
Format : PGS
Muxing mode : zlib
Codec ID : S_HDMV/PGS
Codec ID/Info : Picture based subtitle format used on BDs/HD-DVDs
Duration : 1 h 47 min
Bit rate : 39.5 kb/s
Count of elements : 3682
Stream size : 30.5 MiB (0%)
Title : Spanish-PGS
Language : Spanish
Default : No
Forced : No

Text #4
ID : 14
Format : PGS
Muxing mode : zlib
Codec ID : S_HDMV/PGS
Codec ID/Info : Picture based subtitle format used on BDs/HD-DVDs
Duration : 1 h 47 min
Bit rate : 37.7 kb/s
Count of elements : 3252
Stream size : 29.0 MiB (0%)
Title : French-PGS
Language : French
Default : No
Forced : No

Text #5
ID : 15
Format : PGS
Muxing mode : zlib
Codec ID : S_HDMV/PGS
Codec ID/Info : Picture based subtitle format used on BDs/HD-DVDs
Duration : 1 h 47 min
Bit rate : 190 b/s
Count of elements : 12
Stream size : 150 KiB (0%)
Title : Spanish-FORCED-PGS
Language : Spanish
Default : No
Forced : No

Text #6
ID : 16
Format : PGS
Muxing mode : zlib
Codec ID : S_HDMV/PGS
Codec ID/Info : Picture based subtitle format used on BDs/HD-DVDs
Duration : 1 h 15 min
Bit rate : 1 323 b/s
Count of elements : 86
Stream size : 730 KiB (0%)
Title : French-FORCED-PGS
Language : French
Default : No
Forced : No




回復下載:





游客,如果您要查看本帖隱藏內容請回復,您還可以免扣高清幣免回復下載:http://www.ggchty.live/plugin.php?id=wyfaka_url:url



回復

使用道具 舉報

金雞獎主角

高清幣
12
金錢
3850
鮮花
0
在線時間
1814 小時
最后登錄
2019-10-13
沙發
發表于 2019-8-21 09:19:56 | 只看該作者
中國高清論壇很棒
回復 支持 反對

使用道具 舉報

超級明星

高清幣
255
金錢
8759
鮮花
0
在線時間
879 小時
最后登錄
2019-10-12
板凳
發表于 2019-8-21 09:29:21 | 只看該作者

樓主太厲害了!樓主,電影應該很好看我覺得中國高清論壇真是個好地方!
一缽千家飯,孤身萬里游。
不問生死事,隨緣度春秋。
回復 支持 反對

使用道具 舉報

好萊塢明星

高清幣
505
金錢
6776
鮮花
0
在線時間
1909 小時
最后登錄
2019-10-11
地板
發表于 2019-8-21 09:30:03 | 只看該作者

我看不錯噢 謝謝樓主!中國高清論壇越來越好!
回復 支持 反對

使用道具 舉報

天王巨星

高清幣
3
金錢
1890
鮮花
0
在線時間
210 小時
最后登錄
2019-10-12
5#
發表于 2019-8-21 09:33:22 | 只看該作者
謝謝樓主的分享
回復 支持 反對

使用道具 舉報

影壇巨星

高清幣
1421
金錢
9311
鮮花
0
在線時間
1120 小時
最后登錄
2019-10-13
7#
發表于 2019-8-21 09:40:14 | 只看該作者
樓主發貼辛苦了,謝謝樓主分享!我覺得中國高清論壇是注冊對了!
回復 支持 反對

使用道具 舉報

永恒神話

高清幣
6923
金錢
25859
鮮花
0
在線時間
5284 小時
最后登錄
2019-10-13
8#
發表于 2019-8-21 09:43:26 | 只看該作者

感謝樓主的無私分享!要想中國高清論壇好 就靠你我他
回復 支持 反對

使用道具 舉報

天王巨星

高清幣
289
金錢
1668
鮮花
0
在線時間
366 小時
最后登錄
2019-10-12
9#
發表于 2019-8-21 09:43:49 | 只看該作者
1sdf68r6tg81r68t1ge6r41tg6
回復 支持 反對

使用道具 舉報

金雞獎主角

高清幣
745
金錢
6281
鮮花
0
在線時間
1128 小時
最后登錄
2019-10-12
10#
發表于 2019-8-21 09:44:08 | 只看該作者

這東西我收了!謝謝樓主!中國高清論壇真好!
回復 支持 反對

使用道具 舉報

懶得打字嘛,點擊右側快捷回復 【右側內容,后臺自定義】
您需要登錄后才可以回帖 登錄 | 立即注冊

本版積分規則

QQ|手機版|小黑屋|中國高清論壇 ( 黔ICP備16007815號-1 )

GMT+8, 2019-10-13 22:47 , Processed in 1.569836 second(s), 23 queries .

Powered by Discuz! X3.4

© 2001-2017 Comsenz Inc.

快速回復 返回頂部 返回列表
排列3总跨度振幅走势图