中國高清論壇

 找回密碼
 立即注冊
亞博
搜索
查看: 564|回復: 111
打印 上一主題 下一主題

[REMUX] 魔童/明亮的燃燒.2019.1080p.BluRay.REMUX.AVC.DTS-HD.MA.TrueHD.7.1.Atmos-FGT

  [復制鏈接]

高清發布組長

高清幣
2171
金錢
4464
鮮花
0
在線時間
351 小時
最后登錄
2019-10-13
跳轉到指定樓層
樓主
發表于 2019-8-21 09:11:58 | 只看該作者 回帖獎勵 |倒序瀏覽 |閱讀模式


◎譯  名 魔童 / 明亮的燃燒 / 靈異乍現(臺) / 魔童(港)
◎片  名 Brightburn
◎年  代 2019
◎產  地 美國
◎類  別 恐怖
◎語  言 英語
◎上映日期 2019-05-24(美國)
◎IMDb評分 6.5/10 from 13989 users
◎IMDb鏈接 http://www.imdb.com/title/tt7752126
◎豆瓣評分 5.8/10 from 457 users
◎豆瓣鏈接 https://movie.douban.com/subject/27608262/
◎片  長 91分鐘
◎導  演 大衛·雅洛維斯基 David Yarovesky
◎編  劇 布萊恩·戈恩 Brian Gunn / 馬克·戈恩 Mark Gunn
◎主  演 伊麗莎白·班克斯 Elizabeth Banks
      大衛·丹曼 David Denman
      梅瑞迪斯·海格納 Meredith Hagner
      馬特·瓊斯 Matt Jones
      詹尼佛霍蘭德 Jennifer Holland
      貝基·瓦赫爾斯特羅姆 Becky Wahlstrom
      特倫斯·羅斯摩爾 Terence Rosemore
      史蒂芬·布萊克哈特 Stephen Blackehart
      史蒂夫·阿吉 Steve Agee
      杰克遜·艾頓 Jackson A. Dunn
      安妮·漢弗萊 Annie Humphrey
      克里斯蒂安·芬拉森 Christian Finlayson
      艾美·亨特 Emmie Hunter
      邁克·頓斯頓 Mike Dunston


◎標  簽 恐怖 | 驚悚 | 科幻 | 美國 | 超人 | 2019 | 靈異 | 懸疑

◎簡  介

  一對沒有孩子的鄉村夫妻從家附近的宇宙飛船里撿到了一個嬰兒撫養長大,漸漸的發現這個孩子有點與眾不同,各種超自然能力在他身上顯現出來,他披上了斗篷...但穿上斗篷的不一定都是英雄...

Video
ID : 1
Format : AVC
Format/Info : Advanced Video Codec
Format profile : [email protected]
Format settings : CABAC / 2 Ref Frames
Format settings, CABAC : Yes
Format settings, Reference frames : 2 frames
Format settings, GOP : M=1, N=10
Codec ID : V_MPEG4/ISO/AVC
Duration : 1 h 30 min
Bit rate mode : Variable
Bit rate : 27.8 Mb/s
Width : 1 920 pixels
Height : 1 080 pixels
Display aspect ratio : 16:9
Frame rate mode : Constant
Frame rate : 23.976 (24000/1001) FPS
Color space : YUV
Chroma subsampling : 4:2:0
Bit depth : 8 bits
Scan type : Progressive
Bits/(Pixel*Frame) : 0.560
Stream size : 17.6 GiB (67%)
Title : Brightburn.2019.1080p.BluRay.REMUX.AVC.DTS-HD.MA.TrueHD.7.1.Atmos-FGT
Language : English
Default : No
Forced : No

Audio #1
ID : 2
Format : MLP FBA 16-ch
Format/Info : Meridian Lossless Packing FBA with 16-channel presentation
Commercial name : Dolby TrueHD with Dolby Atmos
Codec ID : A_TRUEHD
Duration : 1 h 30 min
Bit rate mode : Variable
Bit rate : 3 032 kb/s
Maximum bit rate : 5 583 kb/s
Channel(s) : 8 channels
Channel layout : L R C LFE Ls Rs Lb Rb
Sampling rate : 48.0 kHz
Frame rate : 1 200.000 FPS (40 SPF)
Compression mode : Lossless
Stream size : 1.92 GiB (7%)
Title : Brightburn.2019.1080p.BluRay.REMUX.AVC.DTS-HD.MA.TrueHD.7.1.Atmos-FGT
Language : English
Default : Yes
Forced : No
Number of dynamic objects : 11
Bed channel count : 1 channel
Bed channel configuration : LFE

Audio #2
ID : 3
Format : DTS XLL
Format/Info : Digital Theater Systems
Commercial name : DTS-HD Master Audio
Codec ID : A_DTS
Duration : 1 h 30 min
Bit rate mode : Variable
Bit rate : 4 118 kb/s
Channel(s) : 8 channels
Channel layout : C L R LFE Lb Rb Lss Rss
Sampling rate : 48.0 kHz
Frame rate : 93.750 FPS (512 SPF)
Bit depth : 24 bits
Compression mode : Lossless
Stream size : 2.60 GiB (10%)
Title : Brightburn.2019.1080p.BluRay.REMUX.AVC.DTS-HD.MA.TrueHD.7.1.Atmos-FGT
Language : English
Default : No
Forced : No

Audio #3
ID : 4
Format : AC-3
Format/Info : Audio Coding 3
Commercial name : Dolby Digital
Codec ID : A_AC3
Duration : 1 h 30 min
Bit rate mode : Constant
Bit rate : 640 kb/s
Channel(s) : 6 channels
Channel layout : L R C LFE Ls Rs
Sampling rate : 48.0 kHz
Frame rate : 31.250 FPS (1536 SPF)
Bit depth : 16 bits
Compression mode : Lossy
Stream size : 414 MiB (2%)
Title : Brightburn.2019.1080p.BluRay.REMUX.AVC.DTS-HD.MA.TrueHD.7.1.Atmos-FGT
Language : English
Service kind : Complete Main
Default : No
Forced : No

Audio #4
ID : 5
Format : AC-3
Format/Info : Audio Coding 3
Commercial name : Dolby Digital
Codec ID : A_AC3
Duration : 1 h 30 min
Bit rate mode : Constant
Bit rate : 640 kb/s
Channel(s) : 6 channels
Channel layout : L R C LFE Ls Rs
Sampling rate : 48.0 kHz
Frame rate : 31.250 FPS (1536 SPF)
Bit depth : 16 bits
Compression mode : Lossy
Stream size : 414 MiB (2%)
Title : Brightburn.2019.1080p.BluRay.REMUX.AVC.DTS-HD.MA.TrueHD.7.1.Atmos-FGT
Language : English
Service kind : Complete Main
Default : No
Forced : No

Audio #5
ID : 6
Format : AC-3
Format/Info : Audio Coding 3
Commercial name : Dolby Digital
Codec ID : A_AC3
Duration : 1 h 30 min
Bit rate mode : Constant
Bit rate : 640 kb/s
Channel(s) : 6 channels
Channel layout : L R C LFE Ls Rs
Sampling rate : 48.0 kHz
Frame rate : 31.250 FPS (1536 SPF)
Bit depth : 16 bits
Compression mode : Lossy
Stream size : 414 MiB (2%)
Title : Brightburn.2019.1080p.BluRay.REMUX.AVC.DTS-HD.MA.TrueHD.7.1.Atmos-FGT
Language : French
Service kind : Complete Main
Default : No
Forced : No

Audio #6
ID : 7
Format : AC-3
Format/Info : Audio Coding 3
Commercial name : Dolby Digital
Codec ID : A_AC3
Duration : 1 h 30 min
Bit rate mode : Constant
Bit rate : 640 kb/s
Channel(s) : 6 channels
Channel layout : L R C LFE Ls Rs
Sampling rate : 48.0 kHz
Frame rate : 31.250 FPS (1536 SPF)
Bit depth : 16 bits
Compression mode : Lossy
Stream size : 414 MiB (2%)
Title : Brightburn.2019.1080p.BluRay.REMUX.AVC.DTS-HD.MA.TrueHD.7.1.Atmos-FGT
Language : French
Service kind : Complete Main
Default : No
Forced : No

Audio #7
ID : 8
Format : DTS XLL
Format/Info : Digital Theater Systems
Commercial name : DTS-HD Master Audio
Codec ID : A_DTS
Duration : 1 h 30 min
Bit rate mode : Variable
Bit rate : 2 176 kb/s
Channel(s) : 6 channels
Channel layout : C L R Ls Rs LFE
Sampling rate : 48.0 kHz
Frame rate : 93.750 FPS (512 SPF)
Bit depth : 16 bits
Compression mode : Lossless
Stream size : 1.38 GiB (5%)
Title : Brightburn.2019.1080p.BluRay.REMUX.AVC.DTS-HD.MA.TrueHD.7.1.Atmos-FGT
Language : Spanish
Default : No
Forced : No

Audio #8
ID : 9
Format : AC-3
Format/Info : Audio Coding 3
Commercial name : Dolby Digital
Codec ID : A_AC3
Duration : 1 h 30 min
Bit rate mode : Constant
Bit rate : 640 kb/s
Channel(s) : 6 channels
Channel layout : L R C LFE Ls Rs
Sampling rate : 48.0 kHz
Frame rate : 31.250 FPS (1536 SPF)
Bit depth : 16 bits
Compression mode : Lossy
Stream size : 414 MiB (2%)
Title : Brightburn.2019.1080p.BluRay.REMUX.AVC.DTS-HD.MA.TrueHD.7.1.Atmos-FGT
Language : Spanish
Service kind : Complete Main
Default : No
Forced : No

Audio #9
ID : 10
Format : AC-3
Format/Info : Audio Coding 3
Commercial name : Dolby Digital
Codec ID : A_AC3
Duration : 1 h 30 min
Bit rate mode : Constant
Bit rate : 640 kb/s
Channel(s) : 6 channels
Channel layout : L R C LFE Ls Rs
Sampling rate : 48.0 kHz
Frame rate : 31.250 FPS (1536 SPF)
Bit depth : 16 bits
Compression mode : Lossy
Stream size : 414 MiB (2%)
Title : Brightburn.2019.1080p.BluRay.REMUX.AVC.DTS-HD.MA.TrueHD.7.1.Atmos-FGT
Language : Thai
Service kind : Complete Main
Default : No
Forced : No

Audio #10
ID : 11
Format : AC-3
Format/Info : Audio Coding 3
Commercial name : Dolby Digital
Codec ID : A_AC3
Duration : 1 h 30 min
Bit rate mode : Constant
Bit rate : 192 kb/s
Channel(s) : 2 channels
Channel layout : L R
Sampling rate : 48.0 kHz
Frame rate : 31.250 FPS (1536 SPF)
Bit depth : 16 bits
Compression mode : Lossy
Stream size : 124 MiB (0%)
Title : Brightburn.2019.1080p.BluRay.REMUX.AVC.DTS-HD.MA.TrueHD.7.1.Atmos-FGT
Language : English
Service kind : Complete Main
Default : No
Forced : No

Text #1
ID : 12
Format : UTF-8
Codec ID : S_TEXT/UTF8
Codec ID/Info : UTF-8 Plain Text
Duration : 1 h 27 min
Bit rate : 45 b/s
Count of elements : 959
Stream size : 28.9 KiB (0%)
Title : English-SRT
Language : English
Default : Yes
Forced : No

Text #2
ID : 13
Format : PGS
Muxing mode : zlib
Codec ID : S_HDMV/PGS
Codec ID/Info : Picture based subtitle format used on BDs/HD-DVDs
Duration : 1 h 24 min
Bit rate : 25.5 kb/s
Count of elements : 1742
Stream size : 15.4 MiB (0%)
Title : English-PGS
Language : English
Default : No
Forced : No

Text #3
ID : 14
Format : PGS
Muxing mode : zlib
Codec ID : S_HDMV/PGS
Codec ID/Info : Picture based subtitle format used on BDs/HD-DVDs
Duration : 1 h 28 min
Bit rate : 31.8 kb/s
Count of elements : 2416
Stream size : 20.1 MiB (0%)
Title : English-SDH-PGS
Language : English
Default : No
Forced : No

Text #4
ID : 15
Format : PGS
Muxing mode : zlib
Codec ID : S_HDMV/PGS
Codec ID/Info : Picture based subtitle format used on BDs/HD-DVDs
Duration : 1 h 29 min
Bit rate : 19.0 kb/s
Count of elements : 1908
Stream size : 12.2 MiB (0%)
Title : Chinese-PGS
Language : Chinese
Default : No
Forced : No

Text #5
ID : 16
Format : PGS
Muxing mode : zlib
Codec ID : S_HDMV/PGS
Codec ID/Info : Picture based subtitle format used on BDs/HD-DVDs
Duration : 1 h 29 min
Bit rate : 19.2 kb/s
Count of elements : 1856
Stream size : 12.3 MiB (0%)
Title : Chinese-PGS
Language : Chinese
Default : No
Forced : No

Text #6
ID : 17
Format : PGS
Muxing mode : zlib
Codec ID : S_HDMV/PGS
Codec ID/Info : Picture based subtitle format used on BDs/HD-DVDs
Duration : 1 h 29 min
Bit rate : 20.3 kb/s
Count of elements : 1786
Stream size : 13.0 MiB (0%)
Title : Chinese-PGS
Language : Chinese
Default : No
Forced : No

Text #7
ID : 18
Format : PGS
Muxing mode : zlib
Codec ID : S_HDMV/PGS
Codec ID/Info : Picture based subtitle format used on BDs/HD-DVDs
Duration : 1 h 29 min
Bit rate : 18.5 kb/s
Count of elements : 1662
Stream size : 11.8 MiB (0%)
Title : French-PGS
Language : French
Default : No
Forced : No

Text #8
ID : 19
Format : PGS
Muxing mode : zlib
Codec ID : S_HDMV/PGS
Codec ID/Info : Picture based subtitle format used on BDs/HD-DVDs
Duration : 1 h 29 min
Bit rate : 24.3 kb/s
Count of elements : 1854
Stream size : 15.5 MiB (0%)
Title : Indonesian-PGS
Language : Indonesian
Default : No
Forced : No

Text #9
ID : 20
Format : PGS
Muxing mode : zlib
Codec ID : S_HDMV/PGS
Codec ID/Info : Picture based subtitle format used on BDs/HD-DVDs
Duration : 1 h 29 min
Bit rate : 17.7 kb/s
Count of elements : 1898
Stream size : 11.3 MiB (0%)
Title : Korean-PGS
Language : Korean
Default : No
Forced : No

Text #10
ID : 21
Format : PGS
Muxing mode : zlib
Codec ID : S_HDMV/PGS
Codec ID/Info : Picture based subtitle format used on BDs/HD-DVDs
Duration : 1 h 29 min
Bit rate : 28.4 kb/s
Count of elements : 1810
Stream size : 18.1 MiB (0%)
Title : Malay-PGS
Language : Malay
Default : No
Forced : No

Text #11
ID : 22
Format : PGS
Muxing mode : zlib
Codec ID : S_HDMV/PGS
Codec ID/Info : Picture based subtitle format used on BDs/HD-DVDs
Duration : 1 h 29 min
Bit rate : 21.7 kb/s
Count of elements : 1832
Stream size : 13.9 MiB (0%)
Title : Spanish-PGS
Language : Spanish
Default : No
Forced : No

Text #12
ID : 23
Format : PGS
Muxing mode : zlib
Codec ID : S_HDMV/PGS
Codec ID/Info : Picture based subtitle format used on BDs/HD-DVDs
Duration : 1 h 29 min
Bit rate : 388 b/s
Count of elements : 22
Stream size : 254 KiB (0%)
Title : SPanish-FORCED-PGS
Language : Spanish
Default : No
Forced : No

Text #13
ID : 24
Format : PGS
Muxing mode : zlib
Codec ID : S_HDMV/PGS
Codec ID/Info : Picture based subtitle format used on BDs/HD-DVDs
Duration : 1 h 29 min
Bit rate : 21.1 kb/s
Count of elements : 1748
Stream size : 13.5 MiB (0%)
Title : Spanish-PGS
Language : Spanish
Default : No
Forced : No

Text #14
ID : 25
Format : PGS
Muxing mode : zlib
Codec ID : S_HDMV/PGS
Codec ID/Info : Picture based subtitle format used on BDs/HD-DVDs
Duration : 1 h 29 min
Bit rate : 335 b/s
Count of elements : 16
Stream size : 220 KiB (0%)
Title : SPanish-FORCED-PGS
Language : Spanish
Default : No
Forced : No

Text #15
ID : 26
Format : PGS
Muxing mode : zlib
Codec ID : S_HDMV/PGS
Codec ID/Info : Picture based subtitle format used on BDs/HD-DVDs
Duration : 1 h 29 min
Bit rate : 18.8 kb/s
Count of elements : 1910
Stream size : 12.0 MiB (0%)
Title : Thai-PGS
Language : Thai
Default : No
Forced : No

Text #16
ID : 27
Format : PGS
Muxing mode : zlib
Codec ID : S_HDMV/PGS
Codec ID/Info : Picture based subtitle format used on BDs/HD-DVDs
Duration : 1 h 27 min
Bit rate : 310 b/s
Count of elements : 14
Stream size : 198 KiB (0%)
Title : French-PGS
Language : French
Default : No
Forced : No

Text #17
ID : 28
Format : PGS
Muxing mode : zlib
Codec ID : S_HDMV/PGS
Codec ID/Info : Picture based subtitle format used on BDs/HD-DVDs
Duration : 1 h 27 min
Bit rate : 310 b/s
Count of elements : 14
Stream size : 198 KiB (0%)
Title : French-FORCED-PGS
Language : French
Default : No
Forced : No

Text #18
ID : 29
Format : PGS
Muxing mode : zlib
Codec ID : S_HDMV/PGS
Codec ID/Info : Picture based subtitle format used on BDs/HD-DVDs
Duration : 1 h 30 min
Bit rate : 73.3 kb/s
Count of elements : 3424
Stream size : 47.4 MiB (0%)
Title : English-COMMENTARY-PGS
Language : English
Default : No
Forced : No

Text #19
ID : 30
Format : PGS
Muxing mode : zlib
Codec ID : S_HDMV/PGS
Codec ID/Info : Picture based subtitle format used on BDs/HD-DVDs
Duration : 1 h 30 min
Bit rate : 52.9 kb/s
Count of elements : 3173
Stream size : 34.2 MiB (0%)
Title : Chinese-COMMENTARY-PGS
Language : Chinese
Default : No
Forced : No

Text #20
ID : 31
Format : PGS
Muxing mode : zlib
Codec ID : S_HDMV/PGS
Codec ID/Info : Picture based subtitle format used on BDs/HD-DVDs
Duration : 1 h 30 min
Bit rate : 45.7 kb/s
Count of elements : 3173
Stream size : 29.6 MiB (0%)
Title : Korean-COMMENTARY-PGS
Language : Korean
Default : No
Forced : No

Text #21
ID : 32
Format : PGS
Muxing mode : zlib
Codec ID : S_HDMV/PGS
Codec ID/Info : Picture based subtitle format used on BDs/HD-DVDs
Duration : 1 h 30 min
Bit rate : 54.9 kb/s
Count of elements : 3173
Stream size : 35.5 MiB (0%)
Title : Spanish-COMMENTARY-PGS
Language : Spanish
Default : No
Forced : No

Text #22
ID : 33
Format : PGS
Muxing mode : zlib
Codec ID : S_HDMV/PGS
Codec ID/Info : Picture based subtitle format used on BDs/HD-DVDs
Duration : 1 h 30 min
Bit rate : 63.0 kb/s
Count of elements : 3171
Stream size : 40.8 MiB (0%)
Title : Spanish-COMMENTARY-PGS
Language : Spanish
Default : No
Forced : No

Text #23
ID : 34
Format : PGS
Muxing mode : zlib
Codec ID : S_HDMV/PGS
Codec ID/Info : Picture based subtitle format used on BDs/HD-DVDs
Duration : 1 h 30 min
Bit rate : 57.8 kb/s
Count of elements : 3173
Stream size : 37.4 MiB (0%)
Title : Thai-COMMENTARY-PGS
Language : Thai
Default : No
Forced : No

Menu
00:00:00.000 : en:Chapter 01
00:03:20.700 : en:Chapter 02
00:07:04.257 : en:Chapter 03
00:12:30.666 : en:Chapter 04
00:17:46.690 : en:Chapter 05
00:24:22.836 : en:Chapter 06
00:30:28.910 : en:Chapter 07
00:38:06.784 : en:Chapter 08
00:43:11.672 : en:Chapter 09
00:49:25.504 : en:Chapter 10
00:56:53.451 : en:Chapter 11
01:00:12.358 : en:Chapter 12
01:05:22.126 : en:Chapter 13
01:08:15.716 : en:Chapter 14
01:12:20.461 : en:Chapter 15
01:17:28.894 : en:Chapter 16




回復下載:





游客,如果您要查看本帖隱藏內容請回復,您還可以免扣高清幣免回復下載:http://www.ggchty.live/plugin.php?id=wyfaka_url:url



回復

使用道具 舉報

超級明星

高清幣
255
金錢
8759
鮮花
0
在線時間
879 小時
最后登錄
2019-10-12
沙發
發表于 2019-8-21 09:33:06 | 只看該作者

樓主太厲害了!樓主,電影應該很好看我覺得中國高清論壇真是個好地方!
一缽千家飯,孤身萬里游。
不問生死事,隨緣度春秋。
回復 支持 反對

使用道具 舉報

人氣偶像

高清幣
0
金錢
804
鮮花
0
在線時間
139 小時
最后登錄
2019-10-13
板凳
發表于 2019-8-21 09:35:15 | 只看該作者

樓主,大恩不言謝了!中國高清論壇是最棒的!
回復 支持 反對

使用道具 舉報

人氣偶像

高清幣
0
金錢
804
鮮花
0
在線時間
139 小時
最后登錄
2019-10-13
地板
發表于 2019-8-21 09:37:30 | 只看該作者

這個帖子不回對不起自己!我想我是一天也不能離開中國高清論壇
回復 支持 反對

使用道具 舉報

影壇巨星

高清幣
1421
金錢
9311
鮮花
0
在線時間
1120 小時
最后登錄
2019-10-13
5#
發表于 2019-8-21 09:41:58 | 只看該作者
樓主發貼辛苦了,謝謝樓主分享!我覺得中國高清論壇是注冊對了!
回復 支持 反對

使用道具 舉報

金雞獎主角

高清幣
395
金錢
2651
鮮花
0
在線時間
241 小時
最后登錄
2019-10-10
6#
發表于 2019-8-21 09:42:42 | 只看該作者

樓主太厲害了!樓主,電影應該很好看我覺得中國高清論壇真是個好地方!
回復 支持 反對

使用道具 舉報

金雞獎主角

高清幣
745
金錢
6281
鮮花
0
在線時間
1128 小時
最后登錄
2019-10-12
7#
發表于 2019-8-21 09:43:36 | 只看該作者

樓主太厲害了!樓主,電影應該很好看我覺得中國高清論壇真是個好地方!
回復 支持 反對

使用道具 舉報

知名藝人

高清幣
71
金錢
225
鮮花
0
在線時間
47 小時
最后登錄
2019-10-10
8#
發表于 2019-8-21 09:47:58 | 只看該作者

樓主太厲害了!樓主,電影應該很好看我覺得中國高清論壇真是個好地方!
回復 支持 反對

使用道具 舉報

永恒神話

高清幣
2975
金錢
19328
鮮花
0
在線時間
1783 小時
最后登錄
2019-10-12
9#
發表于 2019-8-21 09:51:00 | 只看該作者

既然你誠信誠意的推薦了,那我就看看吧!中國高清論壇不走平凡路。
回復 支持 反對

使用道具 舉報

永恒神話

高清幣
7165
金錢
12996
鮮花
0
在線時間
1161 小時
最后登錄
2019-10-13
10#
發表于 2019-8-21 09:53:02 | 只看該作者

樓主,大恩不言謝了!中國高清論壇是最棒的!
回復 支持 反對

使用道具 舉報

懶得打字嘛,點擊右側快捷回復 【右側內容,后臺自定義】
您需要登錄后才可以回帖 登錄 | 立即注冊

本版積分規則

QQ|手機版|小黑屋|中國高清論壇 ( 黔ICP備16007815號-1 )

GMT+8, 2019-10-13 22:36 , Processed in 0.050894 second(s), 23 queries .

Powered by Discuz! X3.4

© 2001-2017 Comsenz Inc.

快速回復 返回頂部 返回列表
排列3总跨度振幅走势图